Carefully constructed music sets for your aural pleasure
Aerodynamix 041 @ Frisky Radio May 2016 mixed by JuanP
Progressive House
1:00:00
progressive house
SHOW TRACKLIST
SHOW CUESHEET
SHOW TXT PL

LOAD IN AUDIO PLAYER

1
Lukas Nystrand
Never Fail 2005
03:42
2
Khen
Secret Shining (Original Mix)
06:30
3
Gregory Esayan
Make a Wish (Original Mix)
06:58
4
Sundriver
Chase the Light
06:09
5
Mango
Remember (Slightly Edited)
03:50
6
Zachary Zamarripa ft Nicole McKenna
Say It s Over
03:22
7
Terry Da Libra
The Stigma (Original Mix)
07:52
8
Stereo Underground
Endless Sun
04:04
9
Jens Lonnberg
Last Breath (Jerome Isma
06:35
10
deadmau5
Clockwork (Original Mix)
10:58
PERFORMER "VA [Mixed by JuanP]" TITLE "Aerodynamix 041 (May 2016) Frisky Radio" FILE "58-va-aerodynamix_041_mixed_by_juan_prada_friskyradio-may2016.mp3" WAVE TRACK 01 AUDIO PERFORMER "Lukas Nystrand" TITLE "Never Fail 2005" INDEX 01 00:00:00 TRACK 02 AUDIO PERFORMER "Khen" TITLE "Secret Shining (Original Mix)" INDEX 01 03:42:00 TRACK 03 AUDIO PERFORMER "Gregory Esayan" TITLE "Make a Wish (Original Mix)" INDEX 01 10:12:00 TRACK 04 AUDIO PERFORMER "Sundriver" TITLE "Chase the Light" INDEX 01 17:10:00 TRACK 05 AUDIO PERFORMER "Mango" TITLE "Remember (Slightly Edited)" INDEX 01 23:19:00 TRACK 06 AUDIO PERFORMER "Zachary Zamarripa ft Nicole McKenna" TITLE "Say It s Over" INDEX 01 27:09:00 TRACK 07 AUDIO PERFORMER "Terry Da Libra" TITLE "The Stigma (Original Mix)" INDEX 01 30:31:00 TRACK 08 AUDIO PERFORMER "Stereo Underground" TITLE "Endless Sun" INDEX 01 38:23:00 TRACK 09 AUDIO PERFORMER "Jens Lonnberg" TITLE "Last Breath (Jerome Isma" INDEX 01 42:27:00 TRACK 10 AUDIO PERFORMER "deadmau5" TITLE "Clockwork (Original Mix)" INDEX 01 49:02:00
01 Lukas Nystrand - Never Fail 2005 00:00 02 Khen - Secret Shining (Original Mix) 03:42 03 Gregory Esayan - Make a Wish (Original Mix) 10:12 04 Sundriver - Chase the Light 17:10 05 Mango - Remember (Slightly Edited) 23:19 06 Zachary Zamarripa ft Nicole McKenna - Say It s Over 27:09 07 Terry Da Libra - The Stigma (Original Mix) 30:31 08 Stereo Underground - Endless Sun 38:23 09 Jens Lonnberg - Last Breath (Jerome Isma 42:27 10 deadmau5 - Clockwork (Original Mix) 49:02
Aerodynamix 041 @ Frisky Radio May 2016 mixed by JuanPdata/58-va-aerodynamix_041_mixed_by_juan_prada_friskyradio-may2016-500px.pngdata/58-va-aerodynamix_041_mixed_by_juan_prada_friskyradio-may2016.mp3data/58-va-aerodynamix_041_mixed_by_juan_prada_friskyradio-may2016.ogg
{"Cuesheet":{"performer":"VA [Mixed by JuanP]","title":"Aerodynamix 041 (May 2016) Frisky Radio","file":"58-va-aerodynamix_041_mixed_by_juan_prada_friskyradio-may2016.mp3"},"Track":[{"performer":"Lukas Nystrand","title":"Never Fail 2005","index":{"time":"00:00:00","frames":0,"seconds":0,"lenseconds":222,"lentime":"03:42"}},{"performer":"Khen","title":"Secret Shining (Original Mix)","index":{"time":"03:42:00","frames":16650,"seconds":222,"lenseconds":390,"lentime":"06:30"}},{"performer":"Gregory Esayan","title":"Make a Wish (Original Mix)","index":{"time":"10:12:00","frames":45900,"seconds":612,"lenseconds":418,"lentime":"06:58"}},{"performer":"Sundriver","title":"Chase the Light","index":{"time":"17:10:00","frames":77250,"seconds":1030,"lenseconds":369,"lentime":"06:09"}},{"performer":"Mango","title":"Remember (Slightly Edited)","index":{"time":"23:19:00","frames":104925,"seconds":1399,"lenseconds":230,"lentime":"03:50"}},{"performer":"Zachary Zamarripa ft Nicole McKenna","title":"Say It s Over","index":{"time":"27:09:00","frames":122175,"seconds":1629,"lenseconds":202,"lentime":"03:22"}},{"performer":"Terry Da Libra","title":"The Stigma (Original Mix)","index":{"time":"30:31:00","frames":137325,"seconds":1831,"lenseconds":472,"lentime":"07:52"}},{"performer":"Stereo Underground","title":"Endless Sun","index":{"time":"38:23:00","frames":172725,"seconds":2303,"lenseconds":244,"lentime":"04:04"}},{"performer":"Jens Lonnberg","title":"Last Breath (Jerome Isma","index":{"time":"42:27:00","frames":191025,"seconds":2547,"lenseconds":395,"lentime":"06:35"}},{"performer":"deadmau5","title":"Clockwork (Original Mix)","index":{"time":"49:02:00","frames":220650,"seconds":2942,"lenseconds":658,"lentime":"10:58"}}]}