Carefully constructed music sets for your aural pleasure
Aerodynamix 037 @ Frisky Radio January 2016 mixed by JuanP
Progressive House
1:00:00
progressive house
SHOW TRACKLIST
SHOW CUESHEET
SHOW TXT PL

LOAD IN AUDIO PLAYER

1
A+E
Cobra (Tommi Oskari Remix)
07:14
2
Sultan F, Kevin Saw
Reognition (Alfonso Muchacho Remix)
07:10
3
Dapa Deep
All I Want
03:35
4
Philthy Chit
Reflect (Gai Barone Ascension Mix)
07:48
5
Guy J
Lamur (Alfonso Muchacho Rework)
08:42
6
Circulation
Turquoise (Guy J Remix)
07:57
7
Moonbeam
Atom
06:24
8
LTN, Christina Novelli
Feeling Like Yeah (LTN Sunrise Remix)
04:36
9
Lenny Kravitz
Believe (Sumantri Mix)
06:34
PERFORMER "VA [Mixed by JuanP]" TITLE "Aerodynamix 037 (January 2016) Frisky Radio" FILE "54-va-aerodynamix_037_mixed_by_juan_prada_friskyradio-jan2016.mp3" WAVE TRACK 01 AUDIO PERFORMER "A+E" TITLE "Cobra (Tommi Oskari Remix)" INDEX 01 00:00:00 TRACK 02 AUDIO PERFORMER "Sultan F, Kevin Saw" TITLE "Reognition (Alfonso Muchacho Remix)" INDEX 01 07:14:00 TRACK 03 AUDIO PERFORMER "Dapa Deep" TITLE "All I Want" INDEX 01 14:24:00 TRACK 04 AUDIO PERFORMER "Philthy Chit" TITLE "Reflect (Gai Barone Ascension Mix)" INDEX 01 17:59:00 TRACK 05 AUDIO PERFORMER "Guy J" TITLE "Lamur (Alfonso Muchacho Rework)" INDEX 01 25:47:00 TRACK 06 AUDIO PERFORMER "Circulation" TITLE "Turquoise (Guy J Remix)" INDEX 01 34:29:00 TRACK 07 AUDIO PERFORMER "Moonbeam" TITLE "Atom" INDEX 01 42:26:00 TRACK 08 AUDIO PERFORMER "LTN, Christina Novelli" TITLE "Feeling Like Yeah (LTN Sunrise Remix)" INDEX 01 48:50:00 TRACK 09 AUDIO PERFORMER "Lenny Kravitz" TITLE "Believe (Sumantri Mix)" INDEX 01 53:26:00
01 A+E - Cobra (Tommi Oskari Remix) 00:00 02 Sultan F, Kevin Saw - Reognition (Alfonso Muchacho Remix) 07:14 03 Dapa Deep - All I Want 14:24 04 Philthy Chit - Reflect (Gai Barone Ascension Mix) 17:59 05 Guy J - Lamur (Alfonso Muchacho Rework) 25:47 06 Circulation - Turquoise (Guy J Remix) 34:29 07 Moonbeam - Atom 42:26 08 LTN, Christina Novelli - Feeling Like Yeah (LTN Sunrise Remix) 48:50 09 Lenny Kravitz - Believe (Sumantri Mix) 53:26
Aerodynamix 037 @ Frisky Radio January 2016 mixed by JuanPdata/54-va-aerodynamix_037_mixed_by_juan_prada_friskyradio-jan2016-500px.pngdata/54-va-aerodynamix_037_mixed_by_juan_prada_friskyradio-jan2016.mp3data/54-va-aerodynamix_037_mixed_by_juan_prada_friskyradio-jan2016.ogg
{"Cuesheet":{"performer":"VA [Mixed by JuanP]","title":"Aerodynamix 037 (January 2016) Frisky Radio","file":"54-va-aerodynamix_037_mixed_by_juan_prada_friskyradio-jan2016.mp3"},"Track":[{"performer":"A+E","title":"Cobra (Tommi Oskari Remix)","index":{"time":"00:00:00","frames":0,"seconds":0,"lenseconds":434,"lentime":"07:14"}},{"performer":"Sultan F, Kevin Saw","title":"Reognition (Alfonso Muchacho Remix)","index":{"time":"07:14:00","frames":32550,"seconds":434,"lenseconds":430,"lentime":"07:10"}},{"performer":"Dapa Deep","title":"All I Want","index":{"time":"14:24:00","frames":64800,"seconds":864,"lenseconds":215,"lentime":"03:35"}},{"performer":"Philthy Chit","title":"Reflect (Gai Barone Ascension Mix)","index":{"time":"17:59:00","frames":80925,"seconds":1079,"lenseconds":468,"lentime":"07:48"}},{"performer":"Guy J","title":"Lamur (Alfonso Muchacho Rework)","index":{"time":"25:47:00","frames":116025,"seconds":1547,"lenseconds":522,"lentime":"08:42"}},{"performer":"Circulation","title":"Turquoise (Guy J Remix)","index":{"time":"34:29:00","frames":155175,"seconds":2069,"lenseconds":477,"lentime":"07:57"}},{"performer":"Moonbeam","title":"Atom","index":{"time":"42:26:00","frames":190950,"seconds":2546,"lenseconds":384,"lentime":"06:24"}},{"performer":"LTN, Christina Novelli","title":"Feeling Like Yeah (LTN Sunrise Remix)","index":{"time":"48:50:00","frames":219750,"seconds":2930,"lenseconds":276,"lentime":"04:36"}},{"performer":"Lenny Kravitz","title":"Believe (Sumantri Mix)","index":{"time":"53:26:00","frames":240450,"seconds":3206,"lenseconds":394,"lentime":"06:34"}}]}