Carefully constructed music sets for your aural pleasure
Aerodynamix 028 @ Frisky Radio April 2015 mixed by JuanP
Nu Disco, Deep House
1:00:00
nu disco, deep house
SHOW TRACKLIST
SHOW CUESHEET
SHOW TXT PL

LOAD IN AUDIO PLAYER

1
Guille Quinteros
Im Frozen (Original Mix)
06:14
2
Nora En Pure & Sons of Maria
Uruguay (EDXs Dubai Skyline Remix)
04:41
3
Frey
Someone To Count On (Original Mix)
04:10
4
Behind U
Going Somewhere (Original Mix)
05:00
5
Ruffneck
Everybody Be Somebody Featuring Yavahn (Sharam Jey & Kolombo Remix)
03:39
6
Human Life & Anabel Englund
El Diabl (Adana Twins Remix)
06:34
7
Cassimm
Silent To Me (Original Mix)
04:06
8
K.T.S.
Moonlight (Original Mix)
04:57
9
Dj Borra feat. Britt
Until I Fall Asleep (Dub Mix)
04:09
10
Caribou
Your Love Will Set You Free (c2s Set U Free RMX)
06:23
11
Watermat
Bullit (Original Mix)
05:43
12
Dear Deep
Bang The Box (Original Mix)
04:24
PERFORMER "VA [Mixed by JuanP]" TITLE "Aerodynamix 028 (April 2015) Frisky Radio" FILE "45-va-aerodynamix_028_mixed_by_juan_prada-apr2015.mp3" WAVE TRACK 01 AUDIO PERFORMER "Guille Quinteros" TITLE "Im Frozen (Original Mix)" INDEX 01 00:00:00 TRACK 02 AUDIO PERFORMER "Nora En Pure & Sons of Maria" TITLE "Uruguay (EDXs Dubai Skyline Remix)" INDEX 01 06:14:00 TRACK 03 AUDIO PERFORMER "Frey" TITLE "Someone To Count On (Original Mix)" INDEX 01 10:55:00 TRACK 04 AUDIO PERFORMER "Behind U" TITLE "Going Somewhere (Original Mix)" INDEX 01 15:05:00 TRACK 05 AUDIO PERFORMER "Ruffneck" TITLE "Everybody Be Somebody Featuring Yavahn (Sharam Jey & Kolombo Remix)" INDEX 01 20:05:00 TRACK 06 AUDIO PERFORMER "Human Life & Anabel Englund" TITLE "El Diabl (Adana Twins Remix)" INDEX 01 23:44:00 TRACK 07 AUDIO PERFORMER "Cassimm" TITLE "Silent To Me (Original Mix)" INDEX 01 30:18:00 TRACK 08 AUDIO PERFORMER "K.T.S." TITLE "Moonlight (Original Mix)" INDEX 01 34:24:00 TRACK 09 AUDIO PERFORMER "Dj Borra feat. Britt" TITLE "Until I Fall Asleep (Dub Mix)" INDEX 01 39:21:00 TRACK 10 AUDIO PERFORMER "Caribou" TITLE "Your Love Will Set You Free (c2s Set U Free RMX)" INDEX 01 43:30:00 TRACK 11 AUDIO PERFORMER "Watermat" TITLE "Bullit (Original Mix)" INDEX 01 49:53:00 TRACK 12 AUDIO PERFORMER "Dear Deep" TITLE "Bang The Box (Original Mix)" INDEX 01 55:36:00
01 Guille Quinteros - Im Frozen (Original Mix) 00:00 02 Nora En Pure & Sons of Maria - Uruguay (EDXs Dubai Skyline Remix) 06:14 03 Frey - Someone To Count On (Original Mix) 10:55 04 Behind U - Going Somewhere (Original Mix) 15:05 05 Ruffneck - Everybody Be Somebody Featuring Yavahn (Sharam Jey & Kolombo Remix) 20:05 06 Human Life & Anabel Englund - El Diabl (Adana Twins Remix) 23:44 07 Cassimm - Silent To Me (Original Mix) 30:18 08 K.T.S. - Moonlight (Original Mix) 34:24 09 Dj Borra feat. Britt - Until I Fall Asleep (Dub Mix) 39:21 10 Caribou - Your Love Will Set You Free (c2s Set U Free RMX) 43:30 11 Watermat - Bullit (Original Mix) 49:53 12 Dear Deep - Bang The Box (Original Mix) 55:36
Aerodynamix 028 @ Frisky Radio April 2015 mixed by JuanPdata/45-va-aerodynamix_028_mixed_by_juan_prada_friskyradio-apr2015-500px.pngdata/45-va-aerodynamix_028_mixed_by_juan_prada_friskyradio-apr2015.mp3data/45-va-aerodynamix_028_mixed_by_juan_prada_friskyradio-apr2015.ogg
{"Cuesheet":{"performer":"VA [Mixed by JuanP]","title":"Aerodynamix 028 (April 2015) Frisky Radio","file":"45-va-aerodynamix_028_mixed_by_juan_prada-apr2015.mp3"},"Track":[{"performer":"Guille Quinteros","title":"Im Frozen (Original Mix)","index":{"time":"00:00:00","frames":0,"seconds":0,"lenseconds":374,"lentime":"06:14"}},{"performer":"Nora En Pure & Sons of Maria","title":"Uruguay (EDXs Dubai Skyline Remix)","index":{"time":"06:14:00","frames":28050,"seconds":374,"lenseconds":281,"lentime":"04:41"}},{"performer":"Frey","title":"Someone To Count On (Original Mix)","index":{"time":"10:55:00","frames":49125,"seconds":655,"lenseconds":250,"lentime":"04:10"}},{"performer":"Behind U","title":"Going Somewhere (Original Mix)","index":{"time":"15:05:00","frames":67875,"seconds":905,"lenseconds":300,"lentime":"05:00"}},{"performer":"Ruffneck","title":"Everybody Be Somebody Featuring Yavahn (Sharam Jey & Kolombo Remix)","index":{"time":"20:05:00","frames":90375,"seconds":1205,"lenseconds":219,"lentime":"03:39"}},{"performer":"Human Life & Anabel Englund","title":"El Diabl (Adana Twins Remix)","index":{"time":"23:44:00","frames":106800,"seconds":1424,"lenseconds":394,"lentime":"06:34"}},{"performer":"Cassimm","title":"Silent To Me (Original Mix)","index":{"time":"30:18:00","frames":136350,"seconds":1818,"lenseconds":246,"lentime":"04:06"}},{"performer":"K.T.S.","title":"Moonlight (Original Mix)","index":{"time":"34:24:00","frames":154800,"seconds":2064,"lenseconds":297,"lentime":"04:57"}},{"performer":"Dj Borra feat. Britt","title":"Until I Fall Asleep (Dub Mix)","index":{"time":"39:21:00","frames":177075,"seconds":2361,"lenseconds":249,"lentime":"04:09"}},{"performer":"Caribou","title":"Your Love Will Set You Free (c2s Set U Free RMX)","index":{"time":"43:30:00","frames":195750,"seconds":2610,"lenseconds":383,"lentime":"06:23"}},{"performer":"Watermat","title":"Bullit (Original Mix)","index":{"time":"49:53:00","frames":224475,"seconds":2993,"lenseconds":343,"lentime":"05:43"}},{"performer":"Dear Deep","title":"Bang The Box (Original Mix)","index":{"time":"55:36:00","frames":250200,"seconds":3336,"lenseconds":264,"lentime":"04:24"}}]}